#TITLE:Michishirube;
#SUBTITLE:- Kashimashi ~Girl Meets Girl~ Ending;
#ARTIST:Yuumao;
#TITLETRANSLIT:;
#SUBTITLETRANSLIT:;
#ARTISTTRANSLIT:;
#CREDIT:LK4D4;
#BANNER:Kbannervid.avi;
#BACKGROUND:Kashimashi bg1.jpg;
#LYRICSPATH:Kashimashi - E.lrc;
#CDTITLE:lkred1.png;
#MUSIC:Kashimashi Audio.mp3;
#OFFSET:0.300;
#SAMPLESTART:6.980;
#SAMPLELENGTH:12.000;
#SELECTABLE:YES;
#BPMS:0.000=148.120,115.000=74.060,117.000=93.000,119.000=148.120,198.500=111.105;
#STOPS:;
#BGCHANGES:0.550=Kashimashi Video.avi=1.000=0=0=1,
204.000=Kashimashi bg2.png=1.000=1=0=1,
99999=-nosongbg-=1.000=0=0=0 // don't automatically add -songbackground-
;
// cache tags:
#FIRSTBEAT:2.000;
#LASTBEAT:209.500;
#SONGFILENAME:songs/Otaku's Dream 3rd Anime Mix/[LK4D4] Michishirube - Kashimashi ~Girl Meets Girl~ ED/Kashimashi - E.sm;
#HASMUSIC:1;
#HASBANNER:1;
#MUSICLENGTH:87.875;
// end cache tags

//---------------dance-single - Blank----------------
#NOTES:
     dance-single:
     Blank:
     Challenge:
     8:
     0.639,0.596,0.819,0.523,0.063,275.000,72.000,46.000,0.000,0.000:

0000
0000
0000
0000
0101
1010
0000
1100
,
0011
0000
1010
0101
0000
0011
1100
0000
,
0110
0011
0101
0120
,
0001
0000
0200
0000
0000
0000
0300
2030
,
0001
0002
0000
3003
1001
0000
1000
1010
,
0000
0000
0120
0000
0000
0000
1030
0000
1100
0000
0000
0000
0100
0000
0100
0010
,
0001
0100
0010
1000
0001
0200
0000
1300
,
0000
0000
1200
0000
0000
0000
0301
0000
1010
0000
0000
0000
0010
0000
0100
0001
,
0010
0010
0010
0000
0100
0000
1000
1100
,
0000
0000
2001
0000
0000
0000
3010
0000
0110
0000
0000
0000
0100
0000
0001
0010
,
0100
1000
1000
0100
0010
0001
0000
0002
,
0003
0020
0000
0030
0200
0000
1300
2000
,
0010
3000
0020
0000
0100
0000
0031
0000
1000
0000
0000
0000
1000
0000
0100
0000
,
0000
0000
0020
0000
0000
0000
0030
0000
0100
0000
0000
0000
1000
0000
0010
0100
,
1000
0100
0001
1000
0010
0010
0000
1000
,
0000
0002
0000
0013
0110
0000
0000
0100
,
1000
2000
0000
3000
0011
0000
0010
0100
,
0000
0000
2000
0000
0000
0000
3000
0000
1010
0000
0000
0000
0010
0000
0100
0001
,
0010
0100
1000
1000
0010
0100
0000
1000
,
0000
0200
0000
0301
0010
0100
1000
1000
,
0000
0110
0000
0001
0110
0000
0000
0100
,
0001
0100
1000
0000
1001
0000
0101
0000
,
1010
0000
0000
0000
1100
0000
0000
0000
0011
0000
0000
0000
0010
0100
2000
0000
,
0001
3001
1000
1000
0010
0100
0000
0001
,
0000
0020
0000
0031
0210
0000
0000
0000
,
0010
0310
0001
0100
1010
0000
1100
0000
,
0110
0000
0000
0000
0011
0000
0000
0000
0101
0000
0000
0000
0100
0010
1000
0000
,
0010
0100
0001
0010
0200
0000
0001
0300
,
2000
0000
0000
0000
0010
0000
3000
0000
0201
0000
0000
0300
0012
0000
0000
0000
,
0000
0000
0000
0103
0000
0000
0000
0000
0010
0000
1000
0000
0100
0000
1000
0000
0010
0000
0120
0000
0000
1000
0000
0000
,
1030
0100
0100
0000
0010
0001
0000
1000
,
0100
0010
0000
0020
0000
0031
1000
0010
,
0100
1000
0110
0000
0010
1000
0200
0010
,
0000
0300
0012
1000
0103
0000
1000
1000
,
0010
0010
0110
0100
0001
0010
0110
0100
,
1000
0010
0110
0000
1000
0000
0201
0000
,
1000
0300
0021
0000
1000
0030
1010
0000
,
0101
0001
0011
0010
0100
1000
2010
0001
,
3010
0100
1002
0000
0013
0100
0000
1000
,
0010
0001
0010
2000
0000
3000
2001
0001
,
3100
0010
0011
0000
1000
0010
0000
0220
,
0000
0330
0010
1000
0100
0001
0100
0000
,
1000
0000
1010
0000
0100
0001
0000
0101
,
0100
0010
1000
0000
1000
0010
0100
0000
,
0001
0000
0000
0000
2002
0000
0000
3003
0220
0000
0000
0000
0000
0000
0330
0000
,
0011
0000
1010
0000
0010
0100
0110
0000
,
1000
0100
0011
0002
0000
0003
0011
0100
,
0000
0010
1100
2000
0000
3000
1010
0000
,
1100
0000
0011
0000
0202
0000
0000
0303
,
0110
0000
1010
0000
1100
0010
0010
0000
,
0100
0001
0020
0000
,
0000
0000
0000
0000
,
0000
0000
0000
0030
0000
0000
0000
0000
;

//---------------dance-single - Blank----------------
#NOTES:
     dance-single:
     Blank:
     Hard:
     7:
     0.585,0.626,0.751,0.489,0.028,251.000,66.000,43.000,0.000,0.000:

0000
0000
0000
0000
1000
0010
0000
0100
,
0010
0000
0001
0010
0000
0100
0010
0000
,
0011
1010
0110
1002
,
0100
0000
0020
0000
0000
0000
0030
0100
,
0100
0200
0003
0300
1010
0000
1000
1100
,
0000
0012
0000
0003
0101
0000
0100
1000
,
0100
0001
0001
1000
0010
0100
0000
0001
,
0000
0020
0000
0030
1100
0000
0100
0010
,
0000
0010
0000
0000
0001
0000
0001
0100
,
0000
0220
0000
0330
1010
0000
0010
0001
,
0010
1000
1000
0001
0100
0010
0000
2000
,
3000
0200
0000
0300
0020
0000
0030
2002
,
0000
3003
0220
0000
0000
0000
0330
0000
1100
0000
0000
0000
0100
0000
0010
0000
,
0000
0012
0000
0000
1003
0000
0000
0100
,
1000
0100
0001
1000
1000
0010
0000
0001
,
0000
0020
0000
0030
0100
0000
0000
0001
,
0010
0100
0000
0000
1000
0000
0001
1000
,
0000
0000
0200
0000
0000
0000
0000
0000
0001
0000
0300
0000
1000
0000
0010
1000
,
0100
0010
0001
1000
0100
0010
0000
0011
,
0000
0101
0000
2010
0001
0010
3002
0010
,
0000
1000
0000
0103
0110
0000
0000
0001
,
0010
0100
1000
0000
0011
0000
1010
0000
,
1100
0000
0101
0000
1001
0000
0000
1000
,
0010
0100
0001
0010
0100
1100
0000
0110
,
0000
0201
0000
0300
2010
0000
0000
0000
,
0001
3001
0010
0010
1100
0000
0011
0000
,
1010
0000
0101
0000
0110
0000
0000
0100
,
1000
0100
0001
0010
2100
0000
0010
3000
,
0012
0000
0100
0003
1000
0000
0220
0000
,
0000
0000
0000
0330
0000
0000
1001
0000
0000
0000
0000
0000
0000
0000
0000
0000
1000
0000
0000
0000
0100
0000
0000
0000
0010
0000
0000
0000
0001
0000
0000
0000
0100
0000
0000
0000
2010
0000
0000
0000
0000
0000
0010
0000
0000
0000
0000
0000
,
3010
0100
0001
0000
0011
0100
0000
0100
,
1000
0001
0000
0020
0000
0030
0100
1000
,
0010
1000
0110
0000
1000
0010
2000
0001
,
0000
3000
0021
0000
0130
0000
1000
0100
,
0001
0100
1000
0010
0001
0010
1000
0100
,
0001
0100
1000
0000
0011
0000
2100
0000
,
0010
3000
0102
0000
0010
0003
0110
0000
,
1000
0000
1010
0100
0001
0010
0210
0010
,
0310
0001
1001
0000
1000
0010
0000
0110
,
0010
0010
1000
0200
0000
0300
0120
0100
,
0130
0010
1001
0000
0001
0100
0000
1010
,
0000
0000
0101
0100
0010
0000
1100
0000
,
0110
0000
0011
0000
0110
1100
0000
1010
,
0010
0100
0001
0000
1000
1000
0100
0000
,
0010
0000
0000
0000
2002
0000
0000
3003
0220
0000
0000
0000
0000
0000
0330
0000
,
1000
0000
1001
0000
0001
0010
1000
0000
,
0010
0001
0100
2000
0000
3000
0100
0001
,
0000
0010
0100
2000
0000
3000
0101
0000
,
1010
0000
1100
0000
0022
0000
0000
0003
,
0130
0000
0001
0000
0100
1000
0010
0000
,
0100
0001
0020
0000
,
0000
0000
0000
0000
,
0000
0000
0000
0030
0000
0000
0000
0000
;

//---------------dance-single - Blank----------------
#NOTES:
     dance-single:
     Blank:
     Medium:
     6:
     0.517,0.507,0.535,0.250,0.028,249.000,47.000,22.000,0.000,0.000:

0000
0000
0000
0000
0001
0001
0000
0010
,
0010
0000
0100
0100
0000
1000
1000
0000
,
0010
0110
0100
0101
,
0011
0000
2100
0000
0000
0000
0000
0001
,
0001
0002
3000
0000
0103
0000
0010
1000
,
0000
0000
0200
0000
0000
0000
0000
0300
0011
0000
0000
0000
1000
0000
0100
0000
,
0010
0001
0001
0100
0010
1000
0000
0001
,
0000
0000
0200
0000
0000
0000
0000
0300
1010
0000
0000
0000
1000
0000
0001
0000
,
0000
0001
0000
0000
0010
0000
0100
0010
,
0000
0000
0002
0000
0000
0000
0000
0003
0101
0000
0000
0000
0001
0000
0010
0000
,
0100
1000
1000
0010
0100
0001
0000
0001
,
0000
0000
0020
0000
0000
0000
0000
0030
1100
0000
0000
0000
0000
0000
0101
0000
,
0000
1010
0000
0000
0010
0000
0100
0001
,
0000
0000
0020
0000
0000
0000
0000
0030
0110
0000
0000
0000
0000
0000
0001
0000
,
0100
0010
1000
1000
0010
0100
0000
0001
,
0000
0000
0020
0000
0000
0000
0000
0030
1001
0000
0000
0000
0000
0000
0001
0000
,
0100
0010
0000
0000
1010
0000
0010
1000
,
0000
0000
0200
0000
0000
0000
0000
0300
0110
0000
0000
0000
0001
0000
1000
0010
,
1000
0010
0100
0001
0001
1000
0000
0011
,
0000
0101
0000
1020
0100
0100
0100
0100
,
0000
0031
0000
1000
0100
0000
0000
0010
,
0100
0010
0100
0000
0011
0000
0101
0000
,
1010
0000
1100
0000
0110
0000
0000
0010
,
0001
0100
0010
0001
0010
1000
0000
1000
,
0000
0000
0200
0000
0000
0000
0000
0300
0011
0000
0000
0000
0000
0000
0000
0000
,
0010
0001
1000
0001
1010
0000
1100
0000
,
0011
0000
0101
0000
1001
0000
0000
1000
,
0010
0100
0001
0010
0200
0000
2300
0000
,
3020
0230
0302
2003
,
0000
0000
0000
3001
0000
0000
0000
0000
0001
0000
0010
0000
0100
0000
1000
0000
0001
0000
0010
0000
0000
0100
0000
0000
,
0100
0010
0010
0000
0001
0001
0000
0100
,
0010
1000
0000
1010
0000
0000
0010
0100
,
0001
1000
0010
0000
1000
0100
0010
0001
,
0000
0000
0001
0010
0100
0000
1000
1000
,
0010
0010
0100
0100
0001
0001
0010
0010
,
0100
0100
1000
0000
0001
0000
0101
0000
,
1000
1010
0001
0011
,
1100
0000
1001
1001
0000
0000
0001
0100
,
0010
0100
0001
0000
0010
0100
0000
0010
,
0001
0100
0000
0101
0000
0000
0100
0010
,
1000
0010
0100
0000
0001
0010
0000
0011
,
0000
0000
0100
1000
0100
0000
1010
0000
,
0110
0000
0101
0000
0001
1000
0000
0200
,
0010
0010
0310
0000
0100
0001
0210
0000
,
1300
0000
0110
0000
2002
0000
0000
3000
,
0013
0000
0010
0000
0100
1000
0010
0000
,
0010
0100
0001
0010
0000
0000
0100
0010
,
0000
0001
0100
0010
0000
0000
1001
0000
,
0110
1010
0011
0000
,
0010
0000
0100
0000
1000
0010
0100
0000
,
0010
1000
0200
0000
,
0000
0000
0000
0000
,
0000
0000
0000
0300
0000
0000
0000
0000
;

//---------------dance-single - Blank----------------
#NOTES:
     dance-single:
     Blank:
     Easy:
     3:
     0.337,0.417,0.148,0.228,0.000,174.000,13.000,20.000,0.000,0.000:

0000
0000
0000
0000
,
0000
0000
0000
0000
,
0000
0000
0000
0000
,
0000
0000
0000
0000
,
0000
0000
0000
0000
1000
0000
0100
0010
,
0000
0200
0000
0300
1000
0000
0000
0000
,
0010
0000
0010
0100
0001
0100
0000
0010
,
0000
2000
0000
3000
0001
0000
1000
1000
,
0000
1000
0000
0000
0100
0000
1000
0010
,
0000
0200
0000
0300
0010
0000
0000
0000
,
0010
0000
0100
0001
0100
0010
0000
1000
,
0000
0002
0000
0003
0020
0000
0030
0200
,
0300
2000
0000
3000
0100
0000
0010
0001
,
0000
0002
0000
0003
0100
0000
0000
0000
,
0100
0000
0010
1000
0001
0100
0000
0010
,
0000
2000
0000
3000
0100
0000
0000
0100
,
0000
0100
0000
0000
0010
0000
0001
0010
,
0000
0200
0000
0300
0010
0000
0100
0010
,
0100
0000
1000
1000
0001
0001
0000
1000
,
0000
0010
0000
0200
0000
0000
0000
0000
,
0000
0010
0300
0000
0010
0000
0000
0000
,
0000
0000
0110
0110
,
1001
1001
0110
0000
,
0000
0000
1000
0100
0010
0001
0000
0001
,
0000
2000
0000
3000
0200
0000
0000
0000
,
0000
0300
0000
0000
1010
0000
1010
0000
,
0011
0011
1001
0000
,
1000
0000
0001
0100
0020
0000
1000
0030
,
0020
0000
0100
0030
0002
0000
2003
0000
,
0000
3100
0000
0000
0000
0000
0100
0010
,
0001
0100
0010
0000
0100
0010
0000
1001
,
0000
0000
0000
0000
0000
0000
0001
0100
,
0010
1000
0100
0000
0010
0100
0000
1001
,
0000
0000
0000
0000
0000
0000
1000
0100
,
0010
0001
1000
0100
0010
0001
0100
0010
,
1000
0001
0100
0000
0100
0000
0010
0000
,
0010
1000
1000
0100
,
0100
0000
0010
0001
0000
0000
0011
0000
,
0010
0100
1000
0000
1000
0100
0000
0010
,
0000
0000
0000
0000
0000
0000
0001
0100
,
0010
1000
0001
0000
0100
0001
0000
1000
,
0000
0000
0000
0010
,
0010
0000
1000
0000
1000
0100
0000
0010
,
0000
0000
0000
0000
0100
0010
0100
0000
,
0010
0000
0000
0000
0002
0000
0000
0003
0200
0000
0000
0000
0000
0000
0300
0000
,
0100
0000
0010
0000
1000
0100
0000
0000
,
0000
0100
0000
0100
,
0000
0100
0000
1000
,
0100
0010
0001
0000
,
0010
0000
0100
0000
1000
0010
0010
0000
,
0100
0001
2000
0000
,
0000
0000
0000
0000
,
0000
0000
0000
3000
0000
0000
0000
0000
;
